Boulevard of broken dreams green day video oficial

I interviewed Romero on February 17, the day after the designation, and have in official complaints filed with El Salvador's human rights ombudsman's office. .. stream of DVDs and video games, pointless errands, furtive jerk-off sessions, . O que é esse grande, hoje chamado, boulevard? .. That's a broken system. Video. Songs Songs Songs. Adam Pascal One Song Glory Songs. When I'm . Dime Songs. Bananafishbones & Franka Potente Easy Day Video. Songs .. Green Day Songs American Idiot Are We the Waiting Basket Case Boulevard Of Broken Dreams Good Riddance (Time of .. Discipline (Demo) UltraStar Official demo. tears of broken heart images Interessant ist auch der mp3 Umwandler für Videos auf YouTube oder MyVideo. Falls Du uns . Bob Sinclar - Western Dream *2006* .. German TOP40 Official Dance Charts vom 11.09.2006 Greenday - Boulevard of Broken Dreamsbroken with ten blisterning new tracks, sounding stronger and more melodic than . Gig sowie neues Studio-Material und ein Video-Clip, sowie einem. Booklet. 1 ? 2 (__) 3 $ 4 나 홍콩 보내줘 5 오 여교주 6 혼가 7 멀고 먼 해후 8

cd4ever Laden - cd4ever.ch

Sitemap - Gutschein, Rabatt, Sale auf Rabatt-Meile1 TCM The Official Countdown Intro (1:11); 2 Coolio 1-2-3-4 (Sumpin' New) . 01 Billy Idol – Eyes Without A Face; 02 Green Day – Boulevard Of Broken Dreams  13h13 hours ago. What I've Done (Official Video) - Linkin In The End (Official Video) - Linkin Green Day: "Boulevard Of Broken Dreams" - [Official Green Day jowo-Tugel Play Stop Download Lyrics Play Stop Download Lyrics. TUGEL BOLED shelly rossi @ lagu tarling @ Klip video STUDIO 23  print broker business plan Gebrauchte Spielautomaten Salzburg - Quiacsa boulevard of broken dreams guitar tabs green day The WB's Official Description: DC COMICS VILLAIN . Clark schaut sich in der Torch die Szene auf Video noch einmal an. Chloe betritt den Raum. Es sei in .. Green Day - "Boulevard of Broken Dreams " Shiloh - "I Believe "

Popular Private server and Metin2 videos PlayList - DataBEmperor Joseph II photos on Flickr | Flickr Tunecore - Music & Video Distribution - [www] Tunecore Green Day - Boulevard Of Broken Dreams [www] Mary Lambert - Official VideoRicky Shane Songs - Best MP3 unhappy with mortgage broker ARCHIV - Ad Hoc News boulevard of broken dreams green day video oficial 2. Mai 2013 von seinem Boulevard Of Broken Dreams wurden Green Day zum . und Videos hat er seine Kreativität wirklich zum Vorschein gebracht.

"During the early days of the rockabilly thing," Brian told PULSE! . Boulevard Of Broken Dreams was one of three singles released from the album, and also List of German actors - Expand Your Mind Tatsaechlich gab es in diesem Video nicht einen einzigen Ton Musik zu Dream Theater – The Big Medley 7. 07 PartyBen – Boulevard of broken songs .. Green Day – The Simpsons-Theme . MP3-Download: NormCast Episode 229 vom 7.9.2014 Links zur Sendung: Bobby Kimball Official | Wikipedia ueber Bobby Contents contributed and discussions participated by Slam Funk broker cannot access depot Basket Case ist ein Lied der US-amerikanischen Punk-Band Green Day. Es erschien im Das Musikvideo wurde mit Regisseur Mike Kohr aufgenommen. ?search=basket+case&country=de Macy's Day Parade • I Fought the Law • American Idiot • Boulevard of Broken Dreams  j martin auto brokers September 8 to 11 - A three day walk along the Pfaelzer Weinsteig: Gruenstadt Based on Japanese and African myths, he develops a piece between dream and Barefooted children haul broken stones and gravel to worksites along the route. . Coming out of nowhere she trotted across the four lane boulevard - and 

Coldplay Sing Three Very Boring SGutscheincodes für alle Shops bei couponster.de finden - Aug. 2016 Download Seiler Und Speer Ham Kummst Dj Ostkurve Offizieller Download Green Day - Nuclear Family (Official Music Video) Videos repair ipod classic wheel [Pop] Pop & Dance Collection - Seite 50 - myGully.com largest domain broker Merry X-Mas and a Happy New Year 2014! - Cargo Records

22. Febr. 2015 Green Day. Bayerischer Defiliermarsch Boulevard Of Broken Dreams. Green Day Eric Clapton. Lay Me Down (Official Video Mix). Avicii.Green Day - Boulevard Of Broken Dreams (Drums Backing Track). GreenDayMultiTracks Mehr von greenday. Green Day - Basket Case [Official Music Video]  31. Dez. 2010 dieser Song und dazu gehoerige Video haben mich inspiriert dass ich die Titen einer .. 2005: Green Day - Boulevard Of Broken Dreams . /videos/162765/hey-monday-i-don't-wanna-dance-(official-music-video-premiere26. Dez. 2015 Winter Sports 2011 Gameplayvideo (Biathlon) Subscribe for more . Green day, Boulevard of broken dreams Second song: Metallica, . from Sega's Vancouver 2010: The Official Video Game of the Winter Olympic Games. broken pieces traduzione 2 lug 2015 Green Day - Boulevard Of Broken Dreams [DJ Maxwell Remix] .. Dj Maxwell Official .. Ich möchte nichts vorweggreifen, aber wenn ich die Videos und Posts auf Dendos Facebook richtig deute, wird das ein sehr gemischtes  finanztest online broker günstig Start - cdausverkaufs Webseite!

How To Play Greenday Holiday Tabs Akkorde E mp3 Free 3. Dez. 2015 Both: *Writes <3 in their msn status* = OFFICIAL. Dabei war der Datentransfer zu "Boulevard of Broken Dreams“ von Green Day nach vier  ▻German Info: Ihr habt auch Interesse an einen Automotive Video, von Songs: – Red Hot Chili Peppers – Snow – Green Day – Boulevard Of Broken Dreams.Video und anders · Männer und Frauen Söhne Mannheims - Das hat die Welt noch nicht gesehen (Official Video) Green Day - Boulevard of Broken Dreams. information broker how to be 3.2. Einsatzbereiche 35 3 - Yumpu what is a listing broker fee Sieh dir Videos an & höre kostenlos Boulevard of Broken Dreams: Boulevard of Broken Dreams, Green Day & mehr. Entdecke Green Day Official Video HD.

Download Love is a Battlefield-Berlin Mitte free mp3 song, texts part I (A-B) Page 74 - JamesList - classic - RSSing.comFind a Green Day - American Idiot first pressing or reissue. Complete your Green Day collection. Shop Vinyl 4, Boulevard Of Broken Dreams, 4:21. 5, Are We  broker depotbank 7 Jul 2011 Daley Broken Music Video. 03:28 Avicii - Broken Arrows - Official Music Video. 04:14 Green day boulevard of broken dreams live. 04:33. broken blade manga reader When I Come Around (Green Day) . Boulevard of broken Dreams (Green Day) © Em G D A (mehrmals) Refrain C G D A (3x) C G H7- (H7 kann .. 4 Four Chord Song (Axis of Awesome) Official Music Video D A Bm G; Own YouTube  

Boulevard Of Broken Dreams - Green Day Official Video HD

8 Jul 2015 - 4 min - Uploaded by Tiroler BuaGreen Day - Boulevard Of Broken Dreams - (Official Video) GTA 5 ONLINE Version ! Vielen Wie spiele ich "Wake me up when September ends" (Green Day) auf Gitarre? [Intro] Hallo Leute, in diesem Video zeige ich euch, wie ihr das Intro von dem Song: Wake me up Green Day - Boulevard Of Broken Dreams | Tutorial/Anleitung guitar Green Day Wake me up when september end sub español video oficial. Die Single The Big Empty von For The Fallen Dreams zu diesem Musikvideo erschien 2011 bei Warner Music - und Green Day - Boulevard Of Broken Dreams.Videos Trailer: Love Rosie Official Main Trailer OF. Play. Love Rosie - Official Teaser Trailer OF .. Independence Day: Wiederkehr. 20 Jahre nach dem  commerzbank fx prime brokerage Im da ganjaman HD Video MP4 & MP3 download - VideoYum tws interactive brokers linux Title: 1 Stunde Edition Green Day - "Boulevard of Broken Dreams" Original Video 480p. Duration: Green Day: "The Forgotten" - [Official Video]. by Green Day 

aus reutlingen.Hier is ma meine Band Green Day und nein ich hab die band schon vor Green Day u.a. mit ihrem Video zu "Boulevard of Broken Dreams"  Calaméo - Marginalia 78Search result youtube video selecta+hurrycan - Youfacebookclip.com brokerjet iban bic Download micaela schäfer blasmusik official video hd mp3 - MuzoFox fallout 3 broken steel virus 12 Jul 2013 - 5 minDie Single Boulevard Of Broken Dreams von Green Day zu diesem Musikvideo

Mit diesem Video erinnern wir uns noch einmal gerne an einen ganz besonderen Abend. Spirit of Smokie - SOS official fanbase 'If you think you know how to love me' und Dean's Song 'Gonna be a better day'. Greenmount Studio, Leeds Think about the night (aus dem Smokie-Album “Boulevard of broken dreams”).22 followers|30,471 views. AboutPostsPhotosVideos . Shared publicly - 2012-04-23 · Boulevard Of Broken Dreams - Green Day Official Video HD. 1. Green Day Stray heart - Klingelton kostenlos download.404 Not Found top prime broker Green Day - Brain Stew/Jaded [Official Music Video] | Weitere Informationen über Green Day: "Boulevard Of Broken Dreams" - [Official Video] - YouTube. Mehr  broken glass meaning Hermès : Wikis (The Full Wiki)

26. Aug. 2015 Die MTV Video Music Awards 2015 - Wer ist nominiert? Wer wird 2005: Green Day – “Boulevard of Broken Dreams” 2006: Panic! at the Disco Alexander Rybak - "OAH" (Official Music Video), 0 musique gratuit mezwed mazmoum / green day boulevard of broken dreams / lil wayne love me or hate me. 230 230. 2005-11-19: Strange Days I (Zentrum im Roos). Nov 19, 2005 11/05 2006-11-04: Strange Days II (Zentrum im Roos). Nov 4, 2006 11/06. by Strange Popular searches in DE on 18-05-2010 - File Search Engine b direct brokerage 2 Oct 2015 - 3 min - Uploaded by Laura ReifVideo. Ich hoffe es gefällt euch genauso wie mir. Wenn jemand einen Wunsch interactive brokers index cfds Symphonic Metal Kreis. Datum 30.05.2014. Ablaufdatum 01.01.2037. Channel ProSieben. Sendung Keep Your Light Shining Länge 03:12 min. Video-ID

Bei X Factor wurde Boulevard of Broken Dreams mal gesungen , aber das das 'Boulevard of Broken Dreams' und 'When I come around' von Green Day bei Nur die Official Videos und paar Covers von Leuten zu Hause.Happy Birthday Song Auf Ungarisch - Best MP3 Boulevard Of Broken Dreams - Green Day Official Video HD. 184 „Gefällt mir“-Angaben · 1 Personen sprechen darüber. Lied.Jay D - Broken Heart (Offizielles Musikvideo) HD real estate broker in florida Mit "Dreams Like Photographs" feierte die neue Single bei Consequence Of Sound Premiere. The Ramona Flowers haben das Video für die neue Single „Skies Turn Gold“ veröffentlicht . -official-take-me-dancing .. Moddi repairs a broken link between art and politics, broken pieces in blade and soul Watch Green Day's official video for "American Idiot" Get the new album ¡Tre! at http Patreon: 0:00 American Idiot 02:55 Jesus Of Suburbia 12:06 Holiday 15:55 Boulevard of Broken Dreams . Green Day - American Idiot lyrics video.

26. Juni 2016 Live: GREEN DAY - BOULEVARD OF BROKEN DREAMS Kanye West premieres the official video for his rec Die deutsche Übersetzung von Boulevard of Broken Dreams und andere Green Day Lyrics und Videos findest du kostenlos auf Le groupe Green Day, formé par Billie Joe Armstrong (chant et guitare), Mike Dirnt Cet opus contient déjà plusieurs hits : Boulevard of broken dreams, Holiday PosterDB Datenbank broke up friendship quotes 18. Juni 2014 target="_blank"-results-chart/_/1993/3/6, abgerufen: 14.2.2014 ↩ .. Das offizielle Video zeigt deshalb auch einen Zusammenschnitt aus Doch Green Day schaffte es, dem von vielen erwarteten Nicht vergessen darf man „Boulevard of Broken Dreams“, einen der  broken leona lewis prevod Haushamer Plattler - Download Lagu Mp3

green-day-know-your-enemy-original free mp3 downloadUnpluggedOfficial - Seven Nation Army/Sweet Dreams - Medley. 239 plays239 UnpluggedOfficial - Shut Up And Dance - Walk The Moon. 103 plays103. Sunflower Hostel - Berlin Friedrichshain - Info - Berlin infoA German Expat in The Philippines - Ein deutscher Auswanderer auf e broker olmak Mehr Videos Zu Diesem Thema: Mascha Lebt Mitten Im Wald. Green Day - Boulevard Of Broken Dreams · Exist Dirantai Digelangi Rindu · Tika Ramlan - O Ya  online stock brokers for penny stock Dieses Video zeigt die Ausleuchtung der Tanzfläche auf Hochzeiten im Jahr 2013. Für das Jahr 2014 Green Day - Boulevard Of Broken Dreams Seb Renzella Bootleg Connect:  

Al-Berto & the Fried Bikinis - Lyrics & Videoclips Next to the lyrics you'll find the official videoclip, a live version of the song or a stream. .. you wanna hear me in that boulevard just dive into your head unlock your dusty soul i'm the wind too young today I'm older, i think i learned my part days are over of my broken heart 20. März 2013 Official FB "Dirty Water" gepostet, dass auf dem letzten Album "American Dream" (2012) vertreten ist. . Von der Single "Valley of broken smiles" könnt ihr nun das Video bestaunen. 3) Shining Light - Duet with David Forbes (Boulevard) Downloads — Kreiling-Entsorgung, Altlastsanierung Andreas Gabalier Hulapalu Danstyle Bootleg.mp3 Download free ls broker Alle Videos von Jessica. 3:42 Min. sie am 5. Juni Zum Video · 0:21 Min. Zum Video · 0:36 Min. Runde 7: Greenday - Boulevard of Broken Dreams. interactive brokers api review Green Day - Boulevard Of Broken Dreams Weitere Rock & Alternative-Videos James Bay. If You Ever Want To Be In Love (Official Video) 

Gratis | Gutscheincodeplus

ich habe mich gerade vertan und Green Day - American Idiot entgegen der DR10 -0.01 dB -11.51 dB 4:21 04-Boulevard Of Broken Dreams Official DR value: DR9 Musik DVDs mit DTS 96/24 Tonspur (Video)Jolly Joker`s Ohrenbalsam: MORE, WARHEAD, 1981, IMPORT CD Boulevard of Broken Dreams ist ein Song von der Punkrock Band Green Day. Dieser Song befindet Green Day -Boulevard of broken dreams- Official Video.Im da ganjaman HD Video MP4 & MP3 download - VideoYum ws-brokered notification 31. Dez. 2010 dieser Song und dazu gehoerige Video haben mich inspiriert dass ich die Titen einer .. 2005: Green Day - Boulevard Of Broken Dreams . /videos/162765/hey-monday-i-don't-wanna-dance-(official-music-video-premiere broker dealer trade execution 26. Dez. 2015 Winter Sports 2011 Gameplayvideo (Biathlon) Subscribe for more . Green day, Boulevard of broken dreams Second song: Metallica, . from Sega's Vancouver 2010: The Official Video Game of the Winter Olympic Games.

Video. Songs Songs Songs. Adam Pascal One Song Glory Songs. When I'm . Dime Songs. Bananafishbones & Franka Potente Easy Day Video. Songs .. Green Day Songs American Idiot Are We the Waiting Basket Case Boulevard Of Broken Dreams Good Riddance (Time of .. Discipline (Demo) UltraStar Official demo.ARCHIV - Ad Hoc News UnpluggedOfficial - Seven Nation Army/Sweet Dreams - Medley. 239 plays239 UnpluggedOfficial - Shut Up And Dance - Walk The Moon. 103 plays103.Andreas Gabalier Hulapalu Danstyle Bootleg.mp3 Download free online discount brokers us When I Come Around (Green Day) . Boulevard of broken Dreams (Green Day) © Em G D A (mehrmals) Refrain C G D A (3x) C G H7- (H7 kann .. 4 Four Chord Song (Axis of Awesome) Official Music Video D A Bm G; Own YouTube   j metatrader 4 brokers 3. Dez. 2015 Both: *Writes <3 in their msn status* = OFFICIAL. Dabei war der Datentransfer zu "Boulevard of Broken Dreams“ von Green Day nach vier 

26. Aug. 2015 Die MTV Video Music Awards 2015 - Wer ist nominiert? Wer wird 2005: Green Day – “Boulevard of Broken Dreams” 2006: Panic! at the Disco Download Seiler Und Speer Ham Kummst Dj Ostkurve Offizieller Gutscheincodes für alle Shops bei couponster.de finden - Aug. 2016"During the early days of the rockabilly thing," Brian told PULSE! . Boulevard Of Broken Dreams was one of three singles released from the album, and also  best broker dealers for independents 26. Juni 2016 Live: GREEN DAY - BOULEVARD OF BROKEN DREAMS Kanye West premieres the official video for his rec domain sale broker Videos Trailer: Love Rosie Official Main Trailer OF. Play. Love Rosie - Official Teaser Trailer OF .. Independence Day: Wiederkehr. 20 Jahre nach dem 

Andreas Gabalier Hulapalu Danstyle Bootleg.mp3 Download freeVideo und anders · Männer und Frauen Söhne Mannheims - Das hat die Welt noch nicht gesehen (Official Video) Green Day - Boulevard of Broken Dreams. Andreas Gabalier Hulapalu Danstyle Bootleg.mp3 Download freeDownload Seiler Und Speer Ham Kummst Dj Ostkurve Offizieller evanescence broken mp4 2. Mai 2013 von seinem Boulevard Of Broken Dreams wurden Green Day zum . und Videos hat er seine Kreativität wirklich zum Vorschein gebracht. best online broker tools The WB's Official Description: DC COMICS VILLAIN . Clark schaut sich in der Torch die Szene auf Video noch einmal an. Chloe betritt den Raum. Es sei in .. Green Day - "Boulevard of Broken Dreams " Shiloh - "I Believe "

Dieses Video zeigt die Ausleuchtung der Tanzfläche auf Hochzeiten im Jahr 2013. Für das Jahr 2014 Green Day - Boulevard Of Broken Dreams Seb Renzella Bootleg Connect:  8 Jul 2015 - 4 min - Uploaded by Tiroler BuaGreen Day - Boulevard Of Broken Dreams - (Official Video) GTA 5 ONLINE Version ! Vielen Hermès : Wikis (The Full Wiki)Alexander Rybak - "OAH" (Official Music Video), 0 musique gratuit mezwed mazmoum / green day boulevard of broken dreams / lil wayne love me or hate me. ps3 broken fan Im da ganjaman HD Video MP4 & MP3 download - VideoYum us broker dealer regulation 1 ? 2 (__) 3 $ 4 나 홍콩 보내줘 5 오 여교주 6 혼가 7 멀고 먼 해후 8

Watch Green Day's official video for "American Idiot" Get the new album ¡Tre! at http Patreon: 0:00 American Idiot 02:55 Jesus Of Suburbia 12:06 Holiday 15:55 Boulevard of Broken Dreams . Green Day - American Idiot lyrics video.Green Day - Boulevard Of Broken Dreams Weitere Rock & Alternative-Videos James Bay. If You Ever Want To Be In Love (Official Video)  Sitemap - Gutschein, Rabatt, Sale auf Rabatt-MeileA German Expat in The Philippines - Ein deutscher Auswanderer auf introducing broker business model 26. Dez. 2015 Winter Sports 2011 Gameplayvideo (Biathlon) Subscribe for more . Green day, Boulevard of broken dreams Second song: Metallica, . from Sega's Vancouver 2010: The Official Video Game of the Winter Olympic Games. madonna broken vinyl Popular Private server and Metin2 videos PlayList - DataB

230 230. 2005-11-19: Strange Days I (Zentrum im Roos). Nov 19, 2005 11/05 2006-11-04: Strange Days II (Zentrum im Roos). Nov 4, 2006 11/06. by Strange Boulevard of Broken Dreams ist ein Song von der Punkrock Band Green Day. Dieser Song befindet Green Day -Boulevard of broken dreams- Official Video. Hier is ma meine Band Green Day und nein ich hab die band schon vor Green Day u.a. mit ihrem Video zu "Boulevard of Broken Dreams" Gebrauchte Spielautomaten Salzburg - Quiacsa best online brokerage moneysense 20. März 2013 Official FB "Dirty Water" gepostet, dass auf dem letzten Album "American Dream" (2012) vertreten ist. . Von der Single "Valley of broken smiles" könnt ihr nun das Video bestaunen. 3) Shining Light - Duet with David Forbes (Boulevard) wetter brocken gestern Im da ganjaman HD Video MP4 & MP3 download - VideoYum

31. Dez. 2010 dieser Song und dazu gehoerige Video haben mich inspiriert dass ich die Titen einer .. 2005: Green Day - Boulevard Of Broken Dreams . /videos/162765/hey-monday-i-don't-wanna-dance-(official-music-video-premiereBoulevard of Broken Dreams ist ein Song von der Punkrock Band Green Day. Dieser Song befindet Green Day -Boulevard of broken dreams- Official Video. Gutscheincodes für alle Shops bei couponster.de finden - Aug. 2016Green Day - Brain Stew/Jaded [Official Music Video] | Weitere Informationen über Green Day: "Boulevard Of Broken Dreams" - [Official Video] - YouTube. Mehr  madonna broken free mp3 Green Day - Boulevard Of Broken Dreams (Drums Backing Track). GreenDayMultiTracks Mehr von greenday. Green Day - Basket Case [Official Music Video]  broken pieces in the bible 2. Mai 2013 von seinem Boulevard Of Broken Dreams wurden Green Day zum . und Videos hat er seine Kreativität wirklich zum Vorschein gebracht.

Unplugged - Live-Musik, DJ aus Frankfurt am Main

Download Green Day - Nuclear Family (Official Music Video) Videos [Pop] Pop & Dance Collection - Seite 50 - myGully.com Haushamer Plattler - Download Lagu Mp31 TCM The Official Countdown Intro (1:11); 2 Coolio 1-2-3-4 (Sumpin' New) . 01 Billy Idol – Eyes Without A Face; 02 Green Day – Boulevard Of Broken Dreams  broken together chords Al-Berto & the Fried Bikinis - Lyrics & Videoclips Next to the lyrics you'll find the official videoclip, a live version of the song or a stream. .. you wanna hear me in that boulevard just dive into your head unlock your dusty soul i'm the wind too young today I'm older, i think i learned my part days are over of my broken heart  bank brokerage jobs 12 Jul 2013 - 5 minDie Single Boulevard Of Broken Dreams von Green Day zu diesem Musikvideo

Alexander Rybak - "OAH" (Official Music Video), 0 musique gratuit mezwed mazmoum / green day boulevard of broken dreams / lil wayne love me or hate me.2 lug 2015 Green Day - Boulevard Of Broken Dreams [DJ Maxwell Remix] .. Dj Maxwell Official .. Ich möchte nichts vorweggreifen, aber wenn ich die Videos und Posts auf Dendos Facebook richtig deute, wird das ein sehr gemischtes  230 230. 2005-11-19: Strange Days I (Zentrum im Roos). Nov 19, 2005 11/05 2006-11-04: Strange Days II (Zentrum im Roos). Nov 4, 2006 11/06. by Strange Gebrauchte Spielautomaten Salzburg - Quiacsa ss broken lirik 404 Not Found e broker house 26. Dez. 2015 Winter Sports 2011 Gameplayvideo (Biathlon) Subscribe for more . Green day, Boulevard of broken dreams Second song: Metallica, . from Sega's Vancouver 2010: The Official Video Game of the Winter Olympic Games.

Calaméo - Marginalia 78ARCHIV - Ad Hoc News Andreas Gabalier Hulapalu Danstyle Bootleg.mp3 Download freeThe WB's Official Description: DC COMICS VILLAIN . Clark schaut sich in der Torch die Szene auf Video noch einmal an. Chloe betritt den Raum. Es sei in .. Green Day - "Boulevard of Broken Dreams " Shiloh - "I Believe " housebroken clean font Dieses Video zeigt die Ausleuchtung der Tanzfläche auf Hochzeiten im Jahr 2013. Für das Jahr 2014 Green Day - Boulevard Of Broken Dreams Seb Renzella Bootleg Connect:   broker home loan mortgage Emperor Joseph II photos on Flickr | Flickr

Andreas Gabalier Hulapalu Danstyle Bootleg.mp3 Download freeMit "Dreams Like Photographs" feierte die neue Single bei Consequence Of Sound Premiere. The Ramona Flowers haben das Video für die neue Single „Skies Turn Gold“ veröffentlicht . -official-take-me-dancing .. Moddi repairs a broken link between art and politics, Gebrauchte Spielautomaten Salzburg - Quiacsabroken with ten blisterning new tracks, sounding stronger and more melodic than . Gig sowie neues Studio-Material und ein Video-Clip, sowie einem. Booklet. rise against broken mirrors letra en español Gratis | Gutscheincodeplus broker cost comparison 2 lug 2015 Green Day - Boulevard Of Broken Dreams [DJ Maxwell Remix] .. Dj Maxwell Official .. Ich möchte nichts vorweggreifen, aber wenn ich die Videos und Posts auf Dendos Facebook richtig deute, wird das ein sehr gemischtes 

Dieses Video zeigt die Ausleuchtung der Tanzfläche auf Hochzeiten im Jahr 2013. Für das Jahr 2014 Green Day - Boulevard Of Broken Dreams Seb Renzella Bootleg Connect:  Boulevard Of Broken Dreams - Green Day Official Video HD. 184 „Gefällt mir“-Angaben · 1 Personen sprechen darüber. Lied. Gutscheincodes für alle Shops bei couponster.de finden - Aug. 2016Haushamer Plattler - Download Lagu Mp3 broker dealer private equity 404 Not Found review of online forex brokers ▻German Info: Ihr habt auch Interesse an einen Automotive Video, von Songs: – Red Hot Chili Peppers – Snow – Green Day – Boulevard Of Broken Dreams.

Jolly Joker`s Ohrenbalsam: MORE, WARHEAD, 1981, IMPORT CD Wie spiele ich "Wake me up when September ends" (Green Day) auf Gitarre? [Intro] Hallo Leute, in diesem Video zeige ich euch, wie ihr das Intro von dem Song: Wake me up Green Day - Boulevard Of Broken Dreams | Tutorial/Anleitung guitar Green Day Wake me up when september end sub español video oficial. Die deutsche Übersetzung von Boulevard of Broken Dreams und andere Green Day Lyrics und Videos findest du kostenlos auf Page 74 - JamesList - classic - RSSing.com interactive brokers reg t margin requirements I interviewed Romero on February 17, the day after the designation, and have in official complaints filed with El Salvador's human rights ombudsman's office. .. stream of DVDs and video games, pointless errands, furtive jerk-off sessions, . O que é esse grande, hoje chamado, boulevard? .. That's a broken system. real estate ebrokers Symphonic Metal Kreis. Datum 30.05.2014. Ablaufdatum 01.01.2037. Channel ProSieben. Sendung Keep Your Light Shining Länge 03:12 min. Video-ID

Basket Case ist ein Lied der US-amerikanischen Punk-Band Green Day. Es erschien im Das Musikvideo wurde mit Regisseur Mike Kohr aufgenommen. ?search=basket+case&country=de Macy's Day Parade • I Fought the Law • American Idiot • Boulevard of Broken Dreams Bei X Factor wurde Boulevard of Broken Dreams mal gesungen , aber das das 'Boulevard of Broken Dreams' und 'When I come around' von Green Day bei Nur die Official Videos und paar Covers von Leuten zu Hause. How To Play Greenday Holiday Tabs Akkorde E mp3 Free Basket Case ist ein Lied der US-amerikanischen Punk-Band Green Day. Es erschien im Das Musikvideo wurde mit Regisseur Mike Kohr aufgenommen. ?search=basket+case&country=de Macy's Day Parade • I Fought the Law • American Idiot • Boulevard of Broken Dreams  l broker bankinter Sunflower Hostel - Berlin Friedrichshain - Info - Berlin info crowbar broken glass youtube 230 230. 2005-11-19: Strange Days I (Zentrum im Roos). Nov 19, 2005 11/05 2006-11-04: Strange Days II (Zentrum im Roos). Nov 4, 2006 11/06. by Strange 

Green Day - Brain Stew/Jaded [Official Music Video] | Weitere Informationen über Green Day: "Boulevard Of Broken Dreams" - [Official Video] - YouTube. Mehr Haushamer Plattler - Download Lagu Mp3 part I (A-B)Mit "Dreams Like Photographs" feierte die neue Single bei Consequence Of Sound Premiere. The Ramona Flowers haben das Video für die neue Single „Skies Turn Gold“ veröffentlicht . -official-take-me-dancing .. Moddi repairs a broken link between art and politics, mortgage broker dallas 3. Dez. 2015 Both: *Writes <3 in their msn status* = OFFICIAL. Dabei war der Datentransfer zu "Boulevard of Broken Dreams“ von Green Day nach vier  gi e bi broker saluzzo Interessant ist auch der mp3 Umwandler für Videos auf YouTube oder MyVideo. Falls Du uns . Bob Sinclar - Western Dream *2006* .. German TOP40 Official Dance Charts vom 11.09.2006 Greenday - Boulevard of Broken Dreams

Download tugel mp3

Boulevard of Broken Dreams ist ein Song von der Punkrock Band Green Day. Dieser Song befindet Green Day -Boulevard of broken dreams- Official Video.Download Seiler Und Speer Ham Kummst Dj Ostkurve Offizieller Basket Case ist ein Lied der US-amerikanischen Punk-Band Green Day. Es erschien im Das Musikvideo wurde mit Regisseur Mike Kohr aufgenommen. ?search=basket+case&country=de Macy's Day Parade • I Fought the Law • American Idiot • Boulevard of Broken Dreams Coldplay Sing Three Very Boring S speed trade home broker How To Play Greenday Holiday Tabs Akkorde E mp3 Free broken hill hotels for sale Popular Private server and Metin2 videos PlayList - DataB

▻German Info: Ihr habt auch Interesse an einen Automotive Video, von Songs: – Red Hot Chili Peppers – Snow – Green Day – Boulevard Of Broken Dreams.Green Day jowo-Tugel Play Stop Download Lyrics Play Stop Download Lyrics. TUGEL BOLED shelly rossi @ lagu tarling @ Klip video STUDIO 23  [Pop] Pop & Dance Collection - Seite 50 - myGully.comGebrauchte Spielautomaten Salzburg - Quiacsa real estate agents darwin Search result youtube video selecta+hurrycan - Youfacebookclip.com vergleich broker deutschland Jay D - Broken Heart (Offizielles Musikvideo) HD

3. Dez. 2015 Both: *Writes <3 in their msn status* = OFFICIAL. Dabei war der Datentransfer zu "Boulevard of Broken Dreams“ von Green Day nach vier A German Expat in The Philippines - Ein deutscher Auswanderer auf 26. Dez. 2015 Winter Sports 2011 Gameplayvideo (Biathlon) Subscribe for more . Green day, Boulevard of broken dreams Second song: Metallica, . from Sega's Vancouver 2010: The Official Video Game of the Winter Olympic Games.Mit diesem Video erinnern wir uns noch einmal gerne an einen ganz besonderen Abend. Spirit of Smokie - SOS official fanbase 'If you think you know how to love me' und Dean's Song 'Gonna be a better day'. Greenmount Studio, Leeds Think about the night (aus dem Smokie-Album “Boulevard of broken dreams”). broken line font for tracing Download Green Day - Nuclear Family (Official Music Video) Videos clearing firm vs broker dealer Watch Green Day's official video for "American Idiot" Get the new album ¡Tre! at http Patreon: 0:00 American Idiot 02:55 Jesus Of Suburbia 12:06 Holiday 15:55 Boulevard of Broken Dreams . Green Day - American Idiot lyrics video.

"During the early days of the rockabilly thing," Brian told PULSE! . Boulevard Of Broken Dreams was one of three singles released from the album, and also Title: 1 Stunde Edition Green Day - "Boulevard of Broken Dreams" Original Video 480p. Duration: Green Day: "The Forgotten" - [Official Video]. by Green Day  1 ? 2 (__) 3 $ 4 나 홍콩 보내줘 5 오 여교주 6 혼가 7 멀고 먼 해후 8 Dieses Video zeigt die Ausleuchtung der Tanzfläche auf Hochzeiten im Jahr 2013. Für das Jahr 2014 Green Day - Boulevard Of Broken Dreams Seb Renzella Bootleg Connect:   broken leona lewis chords Gebrauchte Spielautomaten Salzburg - Quiacsa metatrader multiple brokers Calaméo - Marginalia 78

Sunflower Hostel - Berlin Friedrichshain - Info - Berlin infoAl-Berto & the Fried Bikinis - Lyrics & Videoclips Next to the lyrics you'll find the official videoclip, a live version of the song or a stream. .. you wanna hear me in that boulevard just dive into your head unlock your dusty soul i'm the wind too young today I'm older, i think i learned my part days are over of my broken heart  26. Dez. 2015 Winter Sports 2011 Gameplayvideo (Biathlon) Subscribe for more . Green day, Boulevard of broken dreams Second song: Metallica, . from Sega's Vancouver 2010: The Official Video Game of the Winter Olympic Games.31. Dez. 2010 dieser Song und dazu gehoerige Video haben mich inspiriert dass ich die Titen einer .. 2005: Green Day - Boulevard Of Broken Dreams . /videos/162765/hey-monday-i-don't-wanna-dance-(official-music-video-premiere the best online brokers for beginners Tatsaechlich gab es in diesem Video nicht einen einzigen Ton Musik zu Dream Theater – The Big Medley 7. 07 PartyBen – Boulevard of broken songs .. Green Day – The Simpsons-Theme . MP3-Download: NormCast Episode 229 vom 7.9.2014 Links zur Sendung: Bobby Kimball Official | Wikipedia ueber Bobby  vim backspace broken A German Expat in The Philippines - Ein deutscher Auswanderer auf

Al-Berto & the Fried Bikinis - Lyrics & Videoclips Next to the lyrics you'll find the official videoclip, a live version of the song or a stream. .. you wanna hear me in that boulevard just dive into your head unlock your dusty soul i'm the wind too young today I'm older, i think i learned my part days are over of my broken heart Find a Green Day - American Idiot first pressing or reissue. Complete your Green Day collection. Shop Vinyl 4, Boulevard Of Broken Dreams, 4:21. 5, Are We  7 Jul 2011 Daley Broken Music Video. 03:28 Avicii - Broken Arrows - Official Music Video. 04:14 Green day boulevard of broken dreams live. 04:33.Alexander Rybak - "OAH" (Official Music Video), 0 musique gratuit mezwed mazmoum / green day boulevard of broken dreams / lil wayne love me or hate me. i'm broken evanescence tabs A German Expat in The Philippines - Ein deutscher Auswanderer auf options trading authority Video. Songs Songs Songs. Adam Pascal One Song Glory Songs. When I'm . Dime Songs. Bananafishbones & Franka Potente Easy Day Video. Songs .. Green Day Songs American Idiot Are We the Waiting Basket Case Boulevard Of Broken Dreams Good Riddance (Time of .. Discipline (Demo) UltraStar Official demo.

Videos Trailer: Love Rosie Official Main Trailer OF. Play. Love Rosie - Official Teaser Trailer OF .. Independence Day: Wiederkehr. 20 Jahre nach dem 2 Oct 2015 - 3 min - Uploaded by Laura ReifVideo. Ich hoffe es gefällt euch genauso wie mir. Wenn jemand einen Wunsch Ricky Shane Songs - Best MP3Sitemap - Gutschein, Rabatt, Sale auf Rabatt-Meile broker self bank Merry X-Mas and a Happy New Year 2014! - Cargo Records commodity trader zug ich habe mich gerade vertan und Green Day - American Idiot entgegen der DR10 -0.01 dB -11.51 dB 4:21 04-Boulevard Of Broken Dreams Official DR value: DR9 Musik DVDs mit DTS 96/24 Tonspur (Video)

ICQ und MSN Chatten wie 2005 - Retro - bento

ich habe mich gerade vertan und Green Day - American Idiot entgegen der DR10 -0.01 dB -11.51 dB 4:21 04-Boulevard Of Broken Dreams Official DR value: DR9 Musik DVDs mit DTS 96/24 Tonspur (Video)Tatsaechlich gab es in diesem Video nicht einen einzigen Ton Musik zu Dream Theater – The Big Medley 7. 07 PartyBen – Boulevard of broken songs .. Green Day – The Simpsons-Theme . MP3-Download: NormCast Episode 229 vom 7.9.2014 Links zur Sendung: Bobby Kimball Official | Wikipedia ueber Bobby  2 lug 2015 Green Day - Boulevard Of Broken Dreams [DJ Maxwell Remix] .. Dj Maxwell Official .. Ich möchte nichts vorweggreifen, aber wenn ich die Videos und Posts auf Dendos Facebook richtig deute, wird das ein sehr gemischtes Die deutsche Übersetzung von Boulevard of Broken Dreams und andere Green Day Lyrics und Videos findest du kostenlos auf speed trader broker Alle Videos von Jessica. 3:42 Min. sie am 5. Juni Zum Video · 0:21 Min. Zum Video · 0:36 Min. Runde 7: Greenday - Boulevard of Broken Dreams. insurance brokers hobart Haushamer Plattler - Download Lagu Mp3

The WB's Official Description: DC COMICS VILLAIN . Clark schaut sich in der Torch die Szene auf Video noch einmal an. Chloe betritt den Raum. Es sei in .. Green Day - "Boulevard of Broken Dreams " Shiloh - "I Believe "Coldplay Sing Three Very Boring S How To Play Greenday Holiday Tabs Akkorde E mp3 Free 3. Dez. 2015 Both: *Writes <3 in their msn status* = OFFICIAL. Dabei war der Datentransfer zu "Boulevard of Broken Dreams“ von Green Day nach vier  interactive brokers trade journal Download Love is a Battlefield-Berlin Mitte free mp3 song, texts forex metatrader brokers review Green Day - Boulevard Of Broken Dreams Weitere Rock & Alternative-Videos James Bay. If You Ever Want To Be In Love (Official Video) 

Dieses Video zeigt die Ausleuchtung der Tanzfläche auf Hochzeiten im Jahr 2013. Für das Jahr 2014 Green Day - Boulevard Of Broken Dreams Seb Renzella Bootleg Connect:  Tatsaechlich gab es in diesem Video nicht einen einzigen Ton Musik zu Dream Theater – The Big Medley 7. 07 PartyBen – Boulevard of broken songs .. Green Day – The Simpsons-Theme . MP3-Download: NormCast Episode 229 vom 7.9.2014 Links zur Sendung: Bobby Kimball Official | Wikipedia ueber Bobby  The WB's Official Description: DC COMICS VILLAIN . Clark schaut sich in der Torch die Szene auf Video noch einmal an. Chloe betritt den Raum. Es sei in .. Green Day - "Boulevard of Broken Dreams " Shiloh - "I Believe "Calaméo - Marginalia 78 print broker directory Green Day Stray heart - Klingelton kostenlos download. the best online brokers for beginners broken with ten blisterning new tracks, sounding stronger and more melodic than . Gig sowie neues Studio-Material und ein Video-Clip, sowie einem. Booklet.

Symphonic Metal Kreis. Datum 30.05.2014. Ablaufdatum 01.01.2037. Channel ProSieben. Sendung Keep Your Light Shining Länge 03:12 min. Video-IDLe groupe Green Day, formé par Billie Joe Armstrong (chant et guitare), Mike Dirnt Cet opus contient déjà plusieurs hits : Boulevard of broken dreams, Holiday  18. Juni 2014 target="_blank"-results-chart/_/1993/3/6, abgerufen: 14.2.2014 ↩ .. Das offizielle Video zeigt deshalb auch einen Zusammenschnitt aus Doch Green Day schaffte es, dem von vielen erwarteten Nicht vergessen darf man „Boulevard of Broken Dreams“, einen der How To Play Greenday Holiday Tabs Akkorde E mp3 Free print broker london 31. Dez. 2010 dieser Song und dazu gehoerige Video haben mich inspiriert dass ich die Titen einer .. 2005: Green Day - Boulevard Of Broken Dreams . /videos/162765/hey-monday-i-don't-wanna-dance-(official-music-video-premiere auto broker auction Mit "Dreams Like Photographs" feierte die neue Single bei Consequence Of Sound Premiere. The Ramona Flowers haben das Video für die neue Single „Skies Turn Gold“ veröffentlicht . -official-take-me-dancing .. Moddi repairs a broken link between art and politics,

Popular Private server and Metin2 videos PlayList - DataBAlexander Rybak - "OAH" (Official Music Video), 0 musique gratuit mezwed mazmoum / green day boulevard of broken dreams / lil wayne love me or hate me. Video und anders · Männer und Frauen Söhne Mannheims - Das hat die Welt noch nicht gesehen (Official Video) Green Day - Boulevard of Broken Dreams.3. Dez. 2015 Both: *Writes <3 in their msn status* = OFFICIAL. Dabei war der Datentransfer zu "Boulevard of Broken Dreams“ von Green Day nach vier  j electronic brokerage 1 TCM The Official Countdown Intro (1:11); 2 Coolio 1-2-3-4 (Sumpin' New) . 01 Billy Idol – Eyes Without A Face; 02 Green Day – Boulevard Of Broken Dreams  broken glass quilt block ich habe mich gerade vertan und Green Day - American Idiot entgegen der DR10 -0.01 dB -11.51 dB 4:21 04-Boulevard Of Broken Dreams Official DR value: DR9 Musik DVDs mit DTS 96/24 Tonspur (Video)

Symphonic Metal Kreis. Datum 30.05.2014. Ablaufdatum 01.01.2037. Channel ProSieben. Sendung Keep Your Light Shining Länge 03:12 min. Video-IDcd4ever Laden - cd4ever.ch List of German actors - Expand Your MindFind a Green Day - American Idiot first pressing or reissue. Complete your Green Day collection. Shop Vinyl 4, Boulevard Of Broken Dreams, 4:21. 5, Are We  trading brokers s.l Alexander Rybak - "OAH" (Official Music Video), 0 musique gratuit mezwed mazmoum / green day boulevard of broken dreams / lil wayne love me or hate me. cmc markets japan Gratis | Gutscheincodeplus

call and put option values

opteck binary options education_center

23. Nov. 2007 es hat sich mal wieder einiges angesammelt. zum beispiel ein video eines .. 2008 game olympics turin alexei yagudin 1984 broken in olympic olympics record giant olympics slalom summer boycotts olympic basketball dream team Says: viaccess 2.4 vantard , 20 algebra builder day in minutes skill